<?xml version="1.0" standalone="no"?>
<!DOCTYPE svg PUBLIC "-//W3C//DTD SVG 1.1//EN" "http://www.w3.org/Graphics/SVG/1.1/DTD/svg11.dtd" >
<svg xmlns="http://www.w3.org/2000/svg">
<metadata>Generated by IcoMoon</metadata>
<defs>
<font id="icomoon" horiz-adv-x="1024">
<font-face units-per-em="1024" ascent="960" descent="-64" />
<missing-glyph horiz-adv-x="1024" />
<glyph unicode="&#x20;" horiz-adv-x="512" d="" />
<glyph unicode="&#xe600;" glyph-name="camera" d="M944.128 439.296c-14.336 0-27.648-4.096-39.936-11.264l-131.072-75.776v32.768c0 69.632-57.344 126.976-126.976 126.976h-519.168c-69.632 1.024-126.976-56.32-126.976-125.952v-282.624c0-69.632 57.344-126.976 126.976-126.976h519.168c69.632 0 126.976 57.344 126.976 126.976v32.768l131.072-75.776c12.288-7.168 25.6-11.264 39.936-11.264 44.032 0 79.872 35.84 79.872 79.872v230.4c0 44.032-35.84 79.872-79.872 79.872zM687.104 103.424c0-22.528-18.432-40.96-40.96-40.96h-519.168c-22.528 0-40.96 18.432-40.96 40.96v282.624c0 22.528 18.432 40.96 40.96 40.96h519.168c22.528 0 40.96-18.432 40.96-40.96v-282.624zM184.32 549.888c77.824 0 141.312 63.488 141.312 141.312s-62.464 142.336-141.312 142.336-141.312-63.488-141.312-141.312 63.488-142.336 141.312-142.336zM542.72 549.888c103.424 0 187.392 83.968 187.392 187.392s-83.968 187.392-187.392 187.392-187.392-83.968-187.392-187.392 83.968-187.392 187.392-187.392z" />
<glyph unicode="&#xe900;" d="M1018.88 655.36c-4.267 5.12-10.24 8.533-17.067 8.533h-111.787c-220.16 0-448.853 0.853-494.080 0.853h-64.853c-6.827 0-13.653-2.56-18.773-7.68-4.267-4.267-5.973-11.093-4.267-17.067l72.533-267.093c3.413-9.387 11.947-15.36 22.187-15.36h523.947c10.24-0.853 18.773 5.973 22.187 15.36l75.093 266.24c0.853 5.12-0.853 11.093-5.12 16.213zM910.507 395.947h-488.96l-62.293 226.987h611.84l-60.587-226.987zM448 572.587c0 0.853 0 1.707-0.853 2.56-1.707 11.093 5.973 21.333 17.067 23.040 11.947 3.413 24.747-2.56 29.013-14.507l46.080-136.533c0-0.853 0-1.707 0.853-2.56 1.707-11.093-5.973-21.333-17.067-23.040-2.56-0.853-4.267-0.853-6.827-0.853-9.387 0-17.92 5.12-22.187 14.507l-46.080 137.387zM796.16 446.293l46.080 136.533c4.267 11.947 17.067 17.92 29.013 14.507 0.853 0 1.707 0 2.56-0.853 10.24-3.413 17.067-14.507 13.653-24.747l-46.080-136.533c-3.413-8.533-11.947-14.507-22.187-14.507-2.56 0-5.12 0-6.827 0.853 0 0-0.853 0-0.853 0-11.093 3.413-17.92 14.507-15.36 24.747zM645.12 438.613v141.653c1.707 10.24 9.387 18.773 19.627 19.627 12.8 1.707 24.747-6.827 26.453-19.627v-142.507c-0.853-11.947-11.093-20.48-23.040-20.48s-22.187 9.387-23.040 21.333z" />
<glyph unicode="&#xe901;" d="M1009.493 283.307c-0.853-11.947-11.093-20.48-23.040-20.48h-651.947c-9.387-0.853-18.773 5.12-22.187 14.507l-169.813 510.293h-119.467c-1.707 0-3.413 0-5.12 0-11.093 1.707-18.773 11.947-17.067 23.040s11.947 18.773 23.040 17.067h136.533c9.387 0.853 18.773-5.12 22.187-14.507l169.813-511.147h636.587c0 0 0.853 0 0.853 0 10.24 0.853 19.627-7.68 19.627-18.773zM566.613 155.307c-5.12-39.253-40.96-66.56-80.213-60.587-6.827-0.853-12.8-0.853-19.627 0-39.253 5.12-66.56 40.96-60.587 80.213 5.12 39.253 40.96 66.56 80.213 60.587 6.827 0.853 12.8 0.853 19.627 0 38.4-5.973 65.707-41.813 60.587-80.213zM520.533 165.547c0 15.36-11.093 28.16-26.453 29.867-17.067 2.56-32.427-9.387-34.133-26.453-2.56-17.067 9.387-32.427 26.453-34.133 0 0 0.853 0 0.853 0 17.067-0.853 32.427 12.8 33.28 30.72zM930.133 164.693c0-35.84-26.453-65.707-61.44-70.827-39.253-5.12-75.093 22.187-80.213 60.587s22.187 75.093 60.587 80.213c44.373 0.853 81.067-30.72 81.067-69.973zM884.053 165.547c0 15.36-11.093 28.16-26.453 29.867-17.067 2.56-32.427-9.387-34.133-26.453-2.56-17.067 9.387-32.427 26.453-34.133 17.067-0.853 32.427 12.8 34.133 30.72z" />
<glyph unicode="&#xe902;" glyph-name="Instagram" d="M512 769.239c104.628 0 117.020-0.402 158.338-2.28 38.204-1.739 58.948-8.124 72.761-13.494 17.664-6.637 32.716-16.623 45.031-29.281l0.024-0.024c12.695-12.336 22.681-27.388 29.032-44.216l0.272-0.836c5.363-13.806 11.748-34.556 13.494-72.761 1.886-41.315 2.28-53.707 2.28-158.338s-0.402-117.020-2.28-158.338c-1.739-38.204-8.126-58.948-13.494-72.761-13.475-34.27-40.091-60.895-73.491-74.061l-0.879-0.309c-13.806-5.363-34.556-11.748-72.761-13.494-41.315-1.886-53.707-2.28-158.338-2.28s-117.028 0.402-158.338 2.28c-38.204 1.739-58.948 8.126-72.761 13.494-17.664 6.637-32.716 16.623-45.030 29.281l-0.024 0.024c-12.695 12.336-22.681 27.388-29.032 44.215l-0.272 0.837c-5.363 13.806-11.748 34.556-13.494 72.761-1.886 41.315-2.28 53.707-2.28 158.338s0.402 117.020 2.28 158.338c1.739 38.204 8.124 58.948 13.494 72.761 6.637 17.665 16.625 32.718 29.285 45.032l0.024 0.024c12.336 12.695 27.388 22.681 44.215 29.032l0.837 0.272c13.806 5.363 34.556 11.748 72.761 13.494 41.315 1.886 53.707 2.28 158.338 2.28zM512.004 839.842c-106.414 0-119.77-0.454-161.56-2.36-41.707-1.902-70.192-8.528-95.114-18.212-27.16-10.393-50.315-25.764-69.381-45.17l-0.024-0.024c-19.435-19.086-34.811-42.246-44.762-68.091l-0.446-1.311c-9.674-24.924-16.3-53.413-18.196-95.116-1.916-41.79-2.37-55.132-2.37-161.56s0.454-119.77 2.37-161.56c1.902-41.707 8.528-70.192 18.212-95.114 10.393-27.16 25.764-50.315 45.17-69.381l0.024-0.024c19.087-19.428 42.246-34.801 68.090-44.746l1.312-0.446c24.924-9.684 53.413-16.31 95.114-18.212 41.798-1.906 55.134-2.36 161.56-2.36s119.77 0.454 161.56 2.36c41.707 1.902 70.192 8.528 95.114 18.212 52.785 20.803 93.791 61.809 114.126 113.241l0.468 1.353c9.684 24.924 16.31 53.413 18.212 95.114 1.906 41.798 2.36 55.134 2.36 161.56s-0.454 119.77-2.36 161.56c-1.902 41.707-8.528 70.192-18.212 95.114-10.393 27.16-25.764 50.315-45.17 69.381l-0.024 0.024c-19.088 19.434-42.246 34.809-68.097 44.758l-1.311 0.446c-24.924 9.674-53.413 16.3-95.116 18.196-41.79 1.916-55.132 2.37-161.56 2.37v0zM512 649.218c-111.127 0-201.218-90.091-201.218-201.218s90.091-201.218 201.218-201.218c111.127 0 201.218 90.091 201.218 201.218v0c0 111.127-90.091 201.218-201.218 201.218v0zM512 317.392c-72.131 0.001-130.607 58.477-130.607 130.608s58.476 130.608 130.608 130.608c72.132 0 130.608-58.476 130.608-130.608v0c-0.001-72.132-58.478-130.608-130.61-130.608v0zM768.192 657.171c0-25.971-21.049-47.020-47.020-47.020s-47.020 21.049-47.020 47.020c0 25.971 21.049 47.020 47.020 47.020s47.020-21.049 47.020-47.020z" />
<glyph unicode="&#xe903;" glyph-name="chevron-left" d="M360.96 496.998l-36.198-36.198 289.638-289.638 72.397 72.397-217.19 217.242 217.19 217.242-72.397 72.397z" />
<glyph unicode="&#xe904;" glyph-name="linkedin" d="M344.707 546.732v-361.067h-120.228v361.067h120.228zM352.356 658.223q0.362-26.593-18.403-44.444t-49.366-17.854h-0.725q-29.871 0-48.088 17.854t-18.216 44.444q0 26.96 18.77 44.635t49.003 17.667 48.455-17.667 18.579-44.635zM777.183 392.625v-206.942h-119.866v193.101q0 38.259-14.759 59.933t-46.085 21.679q-22.949 0-38.436-12.57t-23.138-31.149q-4.006-10.93-4.006-29.509v-201.487h-119.866q0.725 145.369 0.725 235.726t-0.362 107.849l-0.362 17.492h119.866v-52.467h-0.725q7.287 11.655 14.936 20.408t20.582 18.941 31.702 15.851 41.717 5.646q62.298 0 100.2-41.354t37.892-121.144z" />
<glyph unicode="&#xe905;" glyph-name="pinterest1" horiz-adv-x="741" d="M418.654 795.172c-226.845 0-341.209-162.63-341.209-298.257 0-82.121 31.082-155.177 97.761-182.405 10.936-4.462 20.725-0.156 23.914 11.957 2.197 8.388 7.423 29.508 9.76 38.307 3.2 11.984 1.954 16.179-6.871 26.62-19.224 22.694-31.519 52.046-31.519 93.626 0 120.656 90.281 228.671 235.075 228.671 128.219 0 198.653-78.339 198.653-182.957 0-137.668-60.929-253.859-151.381-253.859-49.937 0-87.335 41.309-75.352 91.968 14.364 60.491 42.158 125.753 42.158 169.415 0 39.086-20.965 71.681-64.387 71.681-51.055 0-92.082-52.826-92.082-123.586 0-45.064 15.229-75.549 15.229-75.549s-52.244-221.39-61.411-260.148c-18.247-77.222-2.748-171.893-1.429-181.455 0.779-5.652 8.046-6.997 11.348-2.721 4.717 6.149 65.535 81.216 86.203 156.241 5.85 21.235 33.587 131.237 33.587 131.237 16.59-31.633 65.067-59.499 116.616-59.499 153.478 0 257.613 139.921 257.613 327.214-0.015 141.605-119.96 273.508-302.279 273.508z" />
<glyph unicode="&#xe906;" glyph-name="chevron-right" d="M663.040 424.602l36.198 36.198-289.638 289.638-72.397-72.397 217.19-217.242-217.19-217.242 72.397-72.397 253.44 253.44z" />
<glyph unicode="&#xe907;" glyph-name="twitter" horiz-adv-x="936" d="M763.624 596.205c0.438-6.339 0.438-12.688 0.438-19.090 0-195.029-148.465-419.952-419.952-419.952v0.121c-80.199-0.121-158.727 22.853-226.243 66.171 11.665-1.407 23.38-2.101 35.128-2.137 66.463-0.055 131.026 22.236 183.314 63.298-63.152 1.194-118.538 42.377-137.894 102.499 22.122-4.263 44.92-3.386 66.634 2.539-68.851 13.907-118.392 74.404-118.392 144.666v1.875c20.514-11.423 43.495-17.774 66.987-18.468-64.855 43.349-84.85 129.615-45.687 197.075 74.938-92.206 185.507-148.269 304.186-154.196-11.892 51.266 4.359 104.984 42.694 141.012 59.449 55.88 152.945 53.019 208.816-6.405 33.050 6.522 64.734 18.651 93.731 35.826-11.015-34.168-34.073-63.187-64.88-81.635 29.25 3.453 57.841 11.277 84.754 23.234-19.82-29.689-44.774-55.553-73.648-76.45z" />
<glyph unicode="&#xe908;" d="M817.331 896.836c11.947-0.853 22.187-11.093 21.333-23.040s-11.093-22.187-23.040-21.333v0h-606.72c-11.947 0-22.187 9.387-23.040 22.187 0 11.947 9.387 22.187 22.187 23.040 0 0 0.853 0 0.853 0h606.72c0-0.853 0.853-0.853 1.707-0.853zM214.878 826.863c11.093-1.707 19.627-11.947 18.773-23.040 9.387-140.8 45.227-266.24 96.427-353.28s115.2-136.533 181.76-136.533 130.56 48.64 181.76 136.533c51.2 87.893 87.040 212.48 96.427 353.28 0.853 11.947 11.093 21.333 23.040 21.333 11.947-0.853 21.333-11.093 21.333-23.040 0 0 0-0.853 0-0.853-0.853-14.507-1.707-29.013-3.413-42.667h128c0.853 0 1.707 0 1.707 0 11.947-0.853 21.333-11.947 19.627-24.747 0-1.707-0.853-4.267-1.707-5.973-40.107-104.107-98.987-200.533-173.227-283.307-7.68-10.24-21.333-11.947-31.573-4.267s-11.947 21.333-4.267 31.573c0.853 0.853 1.707 2.56 3.413 3.413 63.147 70.827 113.493 151.893 150.187 238.933h-98.987c-12.8-100.693-44.373-197.12-93.013-285.867-38.4-64.853-86.187-115.2-140.8-140.8 8.533-67.413 32.427-110.933 83.627-136.533h38.4c0.853 0 1.707 0 1.707 0 11.947-0.853 20.48-11.093 20.48-22.187v-81.067c0-11.947-9.387-22.187-22.187-23.040-11.947 0-22.187 9.387-23.040 22.187 0 0 0 0.853 0 0.853v58.027h-357.547v-58.027c0-11.947-9.387-22.187-22.187-23.040-11.947 0-22.187 9.387-23.040 22.187 0 0 0 0.853 0 0.853v80.213c0 11.947 10.24 22.187 22.187 22.187h38.4c52.053 25.6 75.947 69.12 83.627 136.533-54.613 25.6-102.4 75.093-140.8 140.8-48.64 88.747-80.213 186.027-93.013 285.867h-97.28c36.693-87.040 87.040-167.253 150.187-238.080 9.387-8.533 10.24-22.187 2.56-31.573-8.533-9.387-22.187-10.24-31.573-2.56-0.853 0.853-2.56 1.707-3.413 3.413-74.24 83.627-133.12 179.2-173.227 283.307-4.267 11.947 1.707 24.747 12.8 29.013 2.56 0.853 5.12 1.707 7.68 1.707h128c-1.707 13.653-2.56 28.16-3.413 42.667-1.707 11.947 5.973 23.893 17.92 25.6 2.56 0.853 5.12 0.853 7.68 0v0zM514.398 765.423c7.68-0.853 13.653-5.12 17.067-11.947l36.693-69.973 78.507-12.8c11.947-1.707 20.48-13.653 17.92-25.6-0.853-4.267-2.56-8.533-5.973-11.947l-55.467-56.32 11.947-77.653c1.707-11.947-6.827-23.893-18.773-25.6-4.267-0.853-9.387 0-13.653 2.56l-70.827 34.987-70.827-34.987c-11.093-5.973-24.747-0.853-29.867 10.24-1.707 4.267-2.56 8.533-2.56 13.653l11.947 77.653-55.467 56.32c-8.533 8.533-8.533 23.040 0 31.573 3.413 3.413 7.68 5.12 11.947 5.973l78.507 12.8 36.693 69.973c4.267 6.827 12.8 11.947 22.187 11.093v0zM511.838 694.596l-22.187-41.813c-3.413-5.973-9.387-11.093-16.213-11.947l-46.933-7.68 33.28-33.28c5.12-5.12 7.68-11.947 5.973-18.773l-6.827-46.080 42.667 21.333c5.973 3.413 13.653 3.413 19.627 0l42.667-21.333-6.827 46.080c-0.853 6.827 1.707 13.653 5.973 18.773l33.28 33.28-46.933 7.68c-6.827 0.853-12.8 5.973-16.213 11.947l-21.333 41.813zM549.385 273.050c-24.747-5.12-49.493-5.12-74.24 0-5.12-45.227-23.893-87.893-53.76-122.88h181.76c-29.867 34.987-48.64 77.653-53.76 122.88v0z" />
<glyph unicode="&#xe909;" d="M582.665 476.143l-70.827 34.987-70.827-34.987c-7.68-3.413-16.213-3.413-23.040 1.707s-10.24 12.8-8.533 21.333l11.947 77.653-55.467 56.32c-5.973 5.973-7.68 14.507-5.12 22.187s9.387 13.653 17.92 15.36l78.507 12.8 36.693 69.973c4.267 8.533 12.8 12.8 22.187 11.947 7.68-0.853 13.653-5.12 17.067-11.947l36.693-69.973 78.507-12.8c8.533-1.707 15.36-6.827 17.92-15.36 2.56-7.68 0.853-17.067-5.12-22.187l-55.467-56.32 11.947-77.653c0.853-8.533-2.56-16.213-8.533-21.333-3.413-2.56-8.533-4.267-12.8-4.267-6.827 0-10.24 0.853-13.653 2.56zM522.078 555.503l42.667-21.333-6.827 46.080c-0.853 6.827 1.707 13.653 5.973 18.773l33.28 33.28-46.933 7.68c-6.827 0.853-12.8 5.973-16.213 11.947l-22.187 42.667-22.187-41.813c-3.413-5.973-9.387-11.093-16.213-11.947l-46.933-7.68 33.28-33.28c5.12-5.12 7.68-11.947 5.973-18.773l-6.827-46.080 42.667 21.333c3.413 1.707 5.973 2.56 9.387 2.56 4.267-0.853 7.68-1.707 11.093-3.413v0z" />
<glyph unicode="&#xe90a;" d="M542.14 799.804c-4.267 4.267-9.387 5.973-15.36 5.973l-142.507-7.68c-23.040 93.013-116.907 150.187-209.92 126.293s-150.187-117.76-126.293-210.773c15.36-62.293 64-110.933 126.293-126.293l-7.68-141.653c0-5.973 1.707-11.093 5.973-15.36l432.64-432.64c7.68-7.68 21.333-7.68 29.013 0l340.48 340.48c7.68 7.68 7.68 21.333 0 29.013l-432.64 432.64zM122.3 662.417c-52.053 52.053-52.053 136.533 0 188.587s136.533 52.053 188.587 0c15.36-15.36 26.453-34.133 32.427-54.613l-97.28-5.12c-34.133-2.56-61.44-29.867-64-64l-5.12-97.28c-20.48 5.973-39.253 17.067-54.613 32.427v0zM619.793 41.19l-412.16 411.307 14.507 272.213c1.707 13.653 11.947 23.893 25.6 25.6l101.547 5.12c0-34.987-13.653-68.267-39.253-93.013-7.68-7.68-7.68-20.48 0-29.013s20.48-7.68 29.013 0c33.28 33.28 51.2 77.653 51.2 124.587l129.707 6.827 411.307-411.307-311.467-312.32z" />
<glyph unicode="&#xe90b;" d="M658.193 513.937c-41.813 0-75.093-34.133-75.093-75.093 0-19.627 7.68-39.253 22.187-53.76s33.28-22.187 52.907-22.187c41.813 0 75.093 34.133 75.093 75.093s-33.28 75.947-75.093 75.947zM682.94 414.097c-13.653-13.653-34.987-13.653-48.64 0-6.827 6.827-10.24 15.36-10.24 24.747s3.413 17.92 10.24 24.747c13.653 13.653 34.987 13.653 48.64 0 13.653-14.507 13.653-35.84 0-49.493zM410.726 513.937c-41.813 0-75.093-34.133-75.093-75.093 0-19.627 7.68-39.253 22.187-53.76s33.28-22.187 52.907-22.187c41.813 0 75.093 34.133 75.093 75.093 0 41.813-33.28 75.947-75.093 75.947zM435.473 414.097c-13.653-13.653-34.987-13.653-48.64 0-6.827 6.827-10.24 15.36-10.24 24.747s3.413 17.92 10.24 24.747c13.653 13.653 34.987 13.653 48.64 0 13.653-14.507 13.653-36.693 0-49.493zM557.5 623.164v-369.493c0 0 0 0 0 0 0-11.093-9.387-20.48-20.48-20.48s-20.48 9.387-20.48 20.48v369.493c0 0 0 0 0 0 0 11.093 9.387 20.48 20.48 20.48s20.48-9.387 20.48-20.48z" />
<glyph unicode="&#xe90c;" d="M976.213 68.267l-74.24 164.693c129.707 219.307 56.32 502.613-163.84 631.467s-502.613 56.32-631.467-163.84-56.32-502.613 163.84-631.467c145.92-86.187 328.533-85.333 473.6 2.56l163.84-73.387c6.827-3.413 14.507-5.12 22.187-5.12 13.653 0 27.307 5.12 36.693 14.507 14.507 16.213 18.773 40.107 9.387 60.587zM932.693 41.813c-1.707-1.707-4.267-2.56-5.973-0.853l-174.933 81.067c-3.413 0.853-6.827 1.707-10.24 1.707-4.267 0-9.387-1.707-12.8-4.267-195.413-125.44-454.827-68.267-580.267 127.147s-68.267 454.827 127.147 580.267 454.827 68.267 580.267-127.147c43.52-67.413 66.56-145.92 66.56-226.133s-23.040-158.72-66.56-226.133c-4.267-6.827-5.12-15.36-1.707-23.040l81.067-176.64c0-1.707-0.853-4.267-2.56-5.973z" />
<glyph unicode="&#xe90d;" d="M706.56 580.267l-116.907 17.067-52.907 107.52c-6.827 12.8-20.48 21.333-34.987 22.187-14.507 0-28.16-8.533-34.987-22.187l-52.053-105.813-118.613-17.067c-15.36-1.707-27.307-12.8-31.573-27.307-5.12-14.507-0.853-29.867 10.24-40.107l84.48-81.92-19.627-118.613c-3.413-14.507 3.413-29.867 16.213-37.547 11.947-8.533 28.16-10.24 40.96-2.56l104.96 54.613 106.667-55.467c5.12-3.413 11.947-5.12 17.92-5.12 8.533 0 16.213 2.56 23.040 6.827 11.947 8.533 17.92 23.040 16.213 37.547l-21.333 116.907 85.333 83.627c10.24 10.24 14.507 25.6 10.24 40.107-5.973 13.653-17.92 23.893-33.28 27.307zM603.307 458.24c-7.68-7.68-11.093-18.773-9.387-29.013l17.92-107.52-98.987 52.053c-4.267 2.56-9.387 3.413-14.507 4.267-5.12 0-10.24-1.707-14.507-4.267l-95.573-50.347 18.773 109.227c1.707 10.24-1.707 21.333-9.387 29.013l-77.653 75.947 109.227 16.213c10.24 1.707 19.627 8.533 23.893 17.92l48.64 97.28 48.64-99.84c5.12-9.387 13.653-16.213 23.893-17.92l107.52-16.213-78.507-76.8z" />
<glyph unicode="&#xe90e;" d="M505.173-8.533c-8.533 0-17.067 0.853-25.6 1.707-67.413 5.973-130.56 34.987-177.493 83.627-29.867 32.427-52.907 70.827-66.56 112.64-14.507 46.933-19.627 96.427-15.36 145.92 2.56 27.307 9.387 54.613 21.333 79.36 15.36 37.547 34.987 73.387 58.027 107.52 14.507 21.333 29.013 43.52 42.667 63.147l0.853 0.853c18.773 27.307 37.547 55.467 55.467 84.48 26.453 40.107 49.493 81.92 69.12 125.44 16.213 36.693 29.867 75.093 40.96 113.493 1.707 5.973 2.56 11.093 3.413 16.213v0c0 1.707 0.853 3.413 0.853 4.267 1.707-5.973 3.413-12.8 5.973-19.627v-0.853c4.267-15.36 8.533-30.72 13.653-46.933 20.48-60.587 48.64-117.76 82.773-171.52 16.213-25.6 33.28-51.2 48.64-74.24l5.12-6.827 7.68-11.093c5.12-7.68 10.24-15.36 15.36-23.040v0c29.867-41.813 57.173-86.187 80.213-132.267 14.507-29.013 24.747-59.733 30.72-92.16 5.12-25.6 5.973-52.053 3.413-78.507-4.267-59.733-24.747-117.76-59.733-166.4-30.72-43.52-74.24-75.947-123.733-94.72-22.187-7.68-44.373-13.653-67.413-16.213-17.92-3.413-34.133-4.267-50.347-4.267zM512 803.84c0-0.853 0-1.707-0.853-2.56v-1.707c-0.853-3.413-0.853-6.827-1.707-10.24-7.68-33.28-19.627-64.853-34.133-95.573-17.067-33.28-34.133-64.853-52.907-95.573-14.507-23.893-30.72-46.933-46.080-69.973v0c-11.093-16.213-23.893-34.987-35.84-52.907-22.187-32.427-39.253-67.413-52.053-104.107-9.387-31.573-12.8-64-9.387-96.427 1.707-24.747 7.68-49.493 17.067-72.533 13.653-36.693 36.693-68.267 66.56-93.013 34.987-29.013 77.653-46.080 122.88-49.493 10.24-0.853 19.627-0.853 29.013-0.853 32.427-0.853 64.853 5.12 94.72 17.92 34.133 14.507 64 37.547 87.040 66.56 20.48 25.6 34.987 55.467 42.667 87.040 9.387 34.133 11.947 69.973 7.68 105.813-4.267 30.72-13.653 59.733-29.013 87.040-15.36 28.16-33.28 56.32-51.2 83.627v0l-3.413 5.12c-11.947 17.92-23.893 36.693-35.84 54.613v0c-13.653 20.48-29.867 44.373-44.373 67.413-26.453 41.813-46.080 87.040-59.733 133.973-2.56 7.68-4.267 16.213-6.827 23.893v0.853c-0.853 5.12-2.56 9.387-3.413 12.8l-0.853-1.707z" />
<glyph unicode="&#xe90f;" d="M721.92 334.507c-4.267 30.72-13.653 59.733-29.013 87.040-16.213 30.72-54.613 88.747-54.613 88.747s-53.76 81.067-80.213 122.027c-25.6 41.813-46.080 87.040-59.733 133.973-4.267 12.8-6.827 24.747-9.387 37.547h-1.707c-0.853-5.12-1.707-10.24-2.56-14.507-7.68-33.28-19.627-64.853-34.133-95.573-17.067-32.427-33.28-64.853-52.907-95.573-26.453-41.813-55.467-81.92-82.773-122.88-22.187-32.427-39.253-67.413-52.053-104.107-9.387-31.573-11.947-64-9.387-96.427 1.707-24.747 7.68-49.493 17.067-72.533 13.653-36.693 36.693-68.267 66.56-93.013 34.987-29.013 77.653-46.080 122.88-49.493 41.813-4.267 84.48 0.853 123.733 17.067 34.133 14.507 64 37.547 87.040 66.56 20.48 25.6 34.987 55.467 42.667 87.040 10.24 32.427 12.8 69.12 8.533 104.107zM568.32 315.733h-53.76v-176.64h-78.507v176.64h-46.933v58.88h46.933c-1.707 16.213-0.853 31.573 3.413 47.787 8.533 34.987 40.107 58.027 75.947 56.32h52.907v-58.88h-27.307c-28.16 0-26.453-30.72-26.453-30.72v-14.507h54.613v-58.88z" />
<glyph unicode="&#xe910;" d="M929.28 280.96c0-0.853 1.707-2.56 0.853-2.56s-0.853 0.853-1.707 0.853c-15.36 9.387-32.427 15.36-50.347 16.213h-0.853l-1.707-0.853c-30.72 0-52.907-19.627-70.827-34.987l-3.413-2.56c-22.187-18.773-34.987-27.307-43.52-27.307-5.12 0-15.36 2.56-44.373 27.307l-3.413 2.56c-17.92 15.36-40.96 34.987-72.533 34.987s-53.76-18.773-71.68-34.133l-4.267-3.413c-23.040-18.773-36.693-27.307-46.080-27.307s-23.040 8.533-46.080 27.307l-4.267 3.413c-17.92 15.36-40.107 34.133-71.68 34.133-32.427 0-54.613-19.627-72.533-34.987l-5.12-3.413c-28.16-24.747-38.4-27.307-44.373-27.307-8.533 0-21.333 8.533-43.52 26.453l-3.413 2.56c-17.92 15.36-40.107 35.84-70.827 35.84l-0.853 1.707h-0.853c-18.773-0.853-35.84-5.973-52.053-16.213-0.853-0.853-2.56-0.853-3.413-0.853s-1.707 0.853-1.707 2.56v98.133c0 25.6 21.333 46.933 46.933 46.933 1.707 0 2.56 0 4.267 0h736.427c23.893 1.707 44.373-16.213 46.080-39.253 0-2.56 0-5.12 0-7.68v-98.133zM929.28 64.213c0-1.707 3.413-3.413 1.707-3.413h-832.853c-1.707 0-3.413 1.707-3.413 3.413v145.92c0 0.853 0-0.853 0.853 0 11.093 20.48 33.28 33.28 57.173 33.28v0-1.707l0.853 4.267 0.853 0.853c10.24 0 23.040-6.827 44.373-25.6 1.707-1.707 4.267-3.413 5.973-5.12 17.92-15.36 37.547-32.427 67.413-32.427s50.347 17.92 68.267 33.28l5.12 4.267c23.040 19.627 35.84 27.307 46.933 27.307 10.24 0 23.893-7.68 46.933-27.307l5.12-4.267c18.773-16.213 39.253-34.133 70.827-34.133 30.72 0 52.053 17.92 70.827 34.133l5.12 4.267c23.040 19.627 36.693 27.307 46.933 27.307s23.893-7.68 46.933-27.307l5.12-4.267c17.92-15.36 38.4-33.28 68.267-33.28s49.493 17.067 67.413 32.427c1.707 1.707 4.267 3.413 5.973 5.12 21.333 17.92 34.987 23.893 44.373 23.893l0.853-1.707c23.040 0 44.373-12.8 55.467-33.28 0-0.853-1.707 0.853-1.707 0l-1.707-145.92zM981.333 379.093c-0.853 54.613-44.373 98.133-98.987 98.987h-50.347c-1.707 0-7.68 0-7.68 1.707v67.413c0 14.507-8.533 24.747-22.187 23.040-11.093-1.707-17.92-11.947-17.067-23.040v-67.413c0-1.707-3.413-1.707-5.12-1.707h-44.373c-1.707 0-2.56 0-2.56 1.707v67.413c0 12.8-10.24 23.040-23.040 23.040 0 0 0 0 0 0-0.853 0-5.12 0-5.973 0-11.947-0.853-22.187-11.093-23.040-23.040v-67.413c0-1.707 4.267-1.707 2.56-1.707h-94.72c-1.707 0 1.707 0 1.707 1.707v131.413c-0.853 13.653-11.947 23.893-25.6 23.040-0.853 0-3.413 0-4.267 0-11.947-0.853-21.333-11.093-22.187-23.040v-131.413c0-1.707 0-1.707-1.707-1.707h-44.373c-1.707 0-6.827 0-6.827 1.707v131.413c0.853 11.947-7.68 22.187-19.627 23.040 0 0-0.853 0-0.853 0-0.853 0 0.853 0 0 0-11.093-1.707-18.773-11.947-17.92-23.040v-131.413c0-1.707-5.12-1.707-6.827-1.707h-95.573c-1.707 0-2.56 0-2.56 1.707v67.413c0 12.8-10.24 23.040-23.040 23.040 0 0 0 0 0 0-0.853 0-5.12 0-5.973 0-11.947-1.707-21.333-11.093-23.040-23.040v-67.413c0-1.707 4.267-1.707 2.56-1.707h-44.373c-1.707 0 2.56 0 2.56 1.707v67.413c-1.707 14.507-14.507 24.747-28.16 23.040-11.947-0.853-22.187-11.093-23.893-23.040v-67.413c0-1.707-0.853-1.707-2.56-1.707h-50.347c-54.613-0.853-100.693-44.373-103.253-98.987v-341.333c2.56-15.36 14.507-26.453 29.013-29.013h884.907c12.8 0 24.747 17.067 24.747 29.013v341.333z" />
<glyph unicode="&#xe911;" d="M558.080 888.533v0c-10.24 14.507-26.453 23.893-44.373 24.747-17.92-0.853-34.133-9.387-43.52-24.747-10.24-13.653-18.773-28.16-25.6-44.373-12.8-28.16-19.627-58.88-21.333-89.6 0.853-48.64 41.813-87.893 90.453-87.040 48.64-0.853 89.6 37.547 90.453 87.040-1.707 30.72-9.387 61.44-21.333 89.6-5.973 16.213-13.653 30.72-24.747 44.373zM514.56 713.6c-23.893-0.853-43.52 17.067-44.373 40.96 2.56 24.747 8.533 49.493 17.92 72.533 4.267 11.947 10.24 23.040 17.92 33.28 1.707 2.56 4.267 4.267 6.827 5.973 0.853 0.853 2.56 0.853 3.413 0 2.56-1.707 5.12-4.267 6.827-5.973 7.68-10.24 13.653-21.333 17.92-33.28 9.387-23.040 15.36-46.933 17.92-72.533-0.853-23.893-20.48-41.813-44.373-40.96zM826.88 784.427c-5.973 16.213-14.507 30.72-24.747 44.373v0c-10.24 14.507-26.453 23.893-43.52 24.747-17.92-0.853-34.133-9.387-44.373-24.747-10.24-13.653-18.773-28.16-24.747-44.373-12.8-28.16-19.627-58.88-21.333-89.6 0.853-48.64 41.813-87.040 90.453-86.187 48.64-0.853 88.747 37.547 90.453 86.187-1.707 30.72-9.387 61.44-22.187 89.6zM759.467 653.867c-0.853 0-0.853 0 0 0v0c-23.893-1.707-44.373 16.213-45.227 40.107 0 0 0 0.853 0 0.853 2.56 24.747 8.533 49.493 17.92 72.533 4.267 11.947 11.093 23.040 18.773 33.28 1.707 2.56 4.267 4.267 6.827 5.973 0.853 0.853 2.56 0.853 3.413 0 2.56-1.707 4.267-4.267 5.973-5.973 7.68-10.24 13.653-21.333 18.773-33.28 9.387-23.040 15.36-47.787 17.92-72.533-1.707-23.893-21.333-41.813-44.373-40.96zM314.88 828.8v0c-10.24 14.507-26.453 23.893-44.373 24.747-17.92-0.853-34.133-9.387-43.52-24.747-10.24-13.653-18.773-28.16-24.747-44.373-12.8-28.16-19.627-58.88-21.333-89.6 0.853-48.64 40.96-87.040 90.453-86.187 48.64-0.853 89.6 37.547 90.453 86.187-1.707 30.72-8.533 61.44-21.333 89.6-6.827 16.213-15.36 30.72-25.6 44.373zM271.36 653.867c-0.853 0-0.853 0 0 0-23.893-0.853-43.52 17.067-45.227 40.107 0 0 0 0.853 0 0.853 2.56 24.747 8.533 49.493 17.92 72.533 4.267 11.947 11.093 23.040 18.773 33.28 1.707 2.56 4.267 4.267 5.973 5.973 0.853 0.853 2.56 0.853 3.413 0 2.56-1.707 5.12-4.267 6.827-5.973 7.68-10.24 13.653-21.333 18.773-33.28 9.387-23.040 15.36-47.787 17.92-72.533-1.707-23.893-21.333-41.813-44.373-40.96z" />
<glyph unicode="&#xe912;" d="M612.693 717.218c-7.68-11.947-11.947-23.040-12.8-34.133h133.973l-5.12-26.453h-132.267c0-2.56 0-5.12 0-7.68 0-10.24 0-16.213 0-17.92h126.293l-5.973-26.453h-116.053c5.12-29.867 18.773-51.2 39.253-64 15.36-9.387 31.573-13.653 48.64-13.653 24.747 0 43.52 6.827 57.173 19.627v-40.107c-16.213-7.68-34.133-11.093-53.76-11.093-58.88 0-98.987 24.747-119.467 73.387-4.267 10.24-7.68 22.187-11.093 35.84h-29.867l5.12 26.453h20.48c0 5.12-0.853 11.093-0.853 17.92 0 2.56 0 5.12 0 7.68h-25.6l5.12 26.453h23.040c7.68 42.667 29.013 73.387 63.147 91.307 21.333 11.093 44.373 17.067 69.973 17.067 23.893 0 44.373-5.12 61.44-16.213l-7.68-36.693c-16.213 12.8-34.133 19.627-54.613 19.627-22.187 0-40.107-5.12-55.467-16.213-8.533-4.267-16.213-13.653-23.040-24.747z" />
<glyph unicode="&#xe913;" d="M844.8 118.178c-91.307-44.373-181.76-98.987-280.747-120.32-119.467-26.453-226.987 31.573-340.48 54.613-42.667 6.827-85.333 10.24-128.853 9.387-31.573 0.853-20.48 42.667 0 43.52 81.067 0 161.28-11.947 238.080-34.987 52.907-14.507 103.253-35.84 156.16-35.84 103.253 0.853 197.12 56.32 291.84 101.547 27.307 13.653 60.587 22.187 70.827 47.787 11.947 28.16-18.773 55.467-46.933 49.493l-204.8-49.493c-5.12-2.56-8.533-5.973-11.947-10.24-14.507-34.987-51.2-56.32-88.747-51.2-52.053 7.68-104.107 20.48-153.6 38.4-42.667 12.8-18.773 50.347 3.413 44.373 41.813-11.947 84.48-23.040 127.147-33.28 16.213-5.973 34.987-7.68 52.053-3.413 29.867 11.947 27.307 53.76 3.413 68.267-55.467 31.573-114.347 58.027-175.787 78.507-69.973 22.187-136.533-11.093-206.507-20.48-25.6-3.413-52.907-10.24-65.707 4.267-17.067 19.627 5.973 35.84 25.6 36.693 71.68 2.56 139.093 30.72 209.067 31.573 1.707 0 2.56 0 4.267 0 72.533-3.413 142.507-46.933 209.92-81.067 19.627-8.533 35.84-21.333 48.64-38.4 5.973-10.24 5.973-17.067 20.48-17.067l194.56 46.933c23.893 5.12 48.64 0.853 69.12-11.947 55.467-39.253 33.28-120.32-20.48-147.627zM924.16 521.805c-63.147-131.413-234.667-195.413-367.787-139.093-122.027 55.467-191.147 186.027-168.107 318.293 29.013 130.56 143.36 225.28 277.333 229.547 2.56 0 5.12 0 7.68 0 206.507-5.12 331.947-240.64 250.88-408.747zM904.533 688.205c-23.040 112.64-120.32 195.413-235.52 198.827v0c-1.707 0-4.267 0-5.973 0-151.893-3.413-261.12-157.013-230.4-294.4 31.573-141.653 198.827-222.72 325.973-170.667 103.253 45.227 162.987 154.453 145.92 266.24z" />
<glyph unicode="&#xe914;" d="M505.173-8.533c-8.533 0-17.067 0.853-25.6 1.707-67.413 5.973-130.56 34.987-177.493 83.627-29.867 32.427-52.907 70.827-66.56 112.64-14.507 46.933-19.627 96.427-15.36 145.92 2.56 27.307 9.387 54.613 21.333 79.36 15.36 37.547 34.987 73.387 58.027 107.52 14.507 21.333 29.013 43.52 42.667 63.147l0.853 0.853c18.773 27.307 37.547 55.467 55.467 84.48 26.453 40.107 49.493 81.92 69.12 125.44 16.213 36.693 29.867 75.093 40.96 113.493 1.707 5.973 2.56 11.093 3.413 16.213v0c0 1.707 0.853 3.413 0.853 4.267 1.707-5.973 3.413-12.8 5.973-19.627v-0.853c4.267-15.36 8.533-30.72 13.653-46.933 20.48-60.587 48.64-117.76 82.773-171.52 16.213-25.6 33.28-51.2 48.64-74.24l5.12-6.827 7.68-11.093c5.12-7.68 10.24-15.36 15.36-23.040v0c29.867-41.813 57.173-86.187 80.213-132.267 14.507-29.013 24.747-59.733 30.72-92.16 5.12-25.6 5.973-52.053 3.413-78.507-4.267-59.733-24.747-117.76-59.733-166.4-30.72-43.52-74.24-75.947-123.733-94.72-22.187-7.68-44.373-13.653-67.413-16.213-17.92-3.413-34.133-4.267-50.347-4.267zM512 803.84c0-0.853 0-1.707-0.853-2.56v-1.707c-0.853-3.413-0.853-6.827-1.707-10.24-7.68-33.28-19.627-64.853-34.133-95.573-17.067-33.28-34.133-64.853-52.907-95.573-14.507-23.893-30.72-46.933-46.080-69.973v0c-11.093-16.213-23.893-34.987-35.84-52.907-22.187-32.427-39.253-67.413-52.053-104.107-9.387-31.573-12.8-64-9.387-96.427 1.707-24.747 7.68-49.493 17.067-72.533 13.653-36.693 36.693-68.267 66.56-93.013 34.987-29.013 77.653-46.080 122.88-49.493 10.24-0.853 19.627-0.853 29.013-0.853 32.427-0.853 64.853 5.12 94.72 17.92 34.133 14.507 64 37.547 87.040 66.56 20.48 25.6 34.987 55.467 42.667 87.040 9.387 34.133 11.947 69.973 7.68 105.813-4.267 30.72-13.653 59.733-29.013 87.040-15.36 28.16-33.28 56.32-51.2 83.627v0l-3.413 5.12c-11.947 17.92-23.893 36.693-35.84 54.613v0c-13.653 20.48-29.867 44.373-44.373 67.413-26.453 41.813-46.080 87.040-59.733 133.973-2.56 7.68-4.267 16.213-6.827 23.893v0.853c-0.853 5.12-2.56 9.387-3.413 12.8l-0.853-1.707z" />
<glyph unicode="&#xe915;" d="M721.92 334.507c-4.267 30.72-13.653 59.733-29.013 87.040-16.213 30.72-54.613 88.747-54.613 88.747s-53.76 81.067-80.213 122.027c-25.6 41.813-46.080 87.040-59.733 133.973-4.267 12.8-6.827 24.747-9.387 37.547h-1.707c-0.853-5.12-1.707-10.24-2.56-14.507-7.68-33.28-19.627-64.853-34.133-95.573-17.067-32.427-33.28-64.853-52.907-95.573-26.453-41.813-55.467-81.92-82.773-122.88-22.187-32.427-39.253-67.413-52.053-104.107-9.387-31.573-11.947-64-9.387-96.427 1.707-24.747 7.68-49.493 17.067-72.533 13.653-36.693 36.693-68.267 66.56-93.013 34.987-29.013 77.653-46.080 122.88-49.493 41.813-4.267 84.48 0.853 123.733 17.067 34.133 14.507 64 37.547 87.040 66.56 20.48 25.6 34.987 55.467 42.667 87.040 10.24 32.427 12.8 69.12 8.533 104.107zM529.067 220.16c-19.627-0.853-39.253 9.387-50.347 25.6 0 0-11.947-46.933-14.507-56.32-8.533-24.747-20.48-46.933-36.693-67.413 0-0.853-0.853-0.853-1.707-0.853-1.707 0-2.56 0.853-3.413 2.56-4.267 25.6-4.267 52.053 0.853 77.653 4.267 17.067 26.453 111.787 26.453 111.787-4.267 10.24-6.827 21.333-6.827 32.427 0 30.72 17.92 52.907 39.253 52.907 0.853 0 2.56 0 3.413 0 15.36-1.707 25.6-15.36 23.893-30.72-4.267-24.747-10.24-49.493-17.92-72.533-0.853-3.413-0.853-5.973-0.853-9.387 0.853-17.067 15.36-30.72 33.28-29.867 39.253 0 64.853 50.347 64.853 109.227 0 45.227-29.867 78.507-85.333 78.507-1.707 0-3.413 0-5.12 0-53.76-0.853-96.427-44.373-96.427-98.133-0.853-14.507 4.267-29.013 13.653-40.107 3.413-2.56 4.267-7.68 2.56-11.093-0.853-3.413-3.413-12.8-4.267-16.213 0-0.853 0-1.707-0.853-2.56-1.707-3.413-5.973-5.12-9.387-2.56-29.013 15.36-45.227 46.080-41.813 78.507 0 58.027 49.493 128 146.773 128 0.853 0 1.707 0 2.56 0 69.12 1.707 126.293-51.2 128.853-118.613 0-80.213-44.373-140.8-110.933-140.8z" />
<glyph unicode="&#xe916;" d="M519.68 881.493c214.187-4.267 407.040-192.853 413.013-407.893 5.973-233.813-208.213-453.12-460.8-427.52-254.293 26.453-450.56 325.12-343.040 578.56 68.267 155.307 221.867 256 390.827 256.853zM587.093 250.88c-45.227-14.507-93.867-15.36-139.093-1.707-2.56-11.947-4.267-23.893-5.12-36.693-3.413-35.84 0-71.68 8.533-105.813 4.267-0.853 7.68-1.707 11.947-1.707 40.107-5.12 81.067-4.267 121.173 3.413 5.12 16.213 7.68 34.133 9.387 51.2 1.707 29.867 0 60.587-6.827 91.307v0zM321.707 337.92c-46.933-10.24-94.72-11.947-141.653-4.267l-3.413 0.853c38.4-97.28 115.2-174.080 211.627-212.48-5.973 50.347-3.413 100.693 6.827 150.187-27.307 17.067-50.347 40.107-67.413 66.56-0.853 0-3.413 0-5.973-0.853zM701.44 339.627c-16.213-24.747-37.547-45.227-62.293-62.293 1.707-5.12 2.56-10.24 3.413-14.507 10.24-44.373 11.093-91.307 3.413-136.533 94.72 37.547 169.813 112.64 207.36 207.36-47.787-5.12-96.427-3.413-144.213 6.827 0 0-5.12 3.413-7.68-0.853zM512 629.76c-128.853-2.56-219.307-186.027-112.64-287.573 31.573-29.867 76.8-39.253 116.907-46.933 0 0 112.64 17.067 149.333 98.987 46.080 99.84-34.987 235.52-153.6 235.52zM239.787 538.453c-27.307 0-54.613-4.267-81.067-11.093-7.68-43.52-6.827-87.040 0.853-130.56 45.227-12.8 93.867-14.507 139.947-5.12 0 0 6.827-15.36-2.56 20.48-9.387 40.107-7.68 81.067 5.12 120.32-17.92 3.413-35.84 5.973-53.76 5.973-4.267 0-4.267 0-8.533 0zM790.187 539.307c-21.333-0.853-42.667-4.267-63.147-7.68 4.267-11.947 7.68-24.747 8.533-37.547 4.267-33.28 1.707-66.56-8.533-98.133 22.187-4.267 45.227-6.827 68.267-7.68 29.867 0 72.533-4.267 76.8 21.333 5.973 40.107 5.12 81.067-2.56 121.173-12.8 3.413-25.6 5.973-39.253 6.827-12.8 1.707-26.453 2.56-40.107 1.707v0zM388.267 802.133c-97.28-37.547-174.080-114.347-211.627-211.627 36.693 4.267 73.387 5.12 110.933 2.56 16.213-1.707 34.133-16.213 46.080 0.853 17.067 23.040 37.547 42.667 62.293 58.027-5.12 25.6-9.387 51.2-11.093 76.8-0.853 24.747 0.853 49.493 5.12 74.24l-1.707-0.853zM808.96 595.627c17.92-0.853 43.52-4.267 43.52-4.267-36.693 94.72-111.787 170.667-206.507 208.213 5.973-50.347 3.413-101.547-7.68-151.040 24.747-16.213 46.080-37.547 62.293-62.293 35.84 5.12 71.68 8.533 108.373 9.387v0zM522.24 686.080c22.187-1.707 43.52-5.973 64.853-11.947 10.24 47.787 9.387 96.427-2.56 143.36-4.267 0.853-8.533 1.707-12.8 2.56-40.107 5.973-81.067 5.973-120.32-1.707-4.267-13.653-6.827-27.307-7.68-40.96-4.267-34.133-2.56-68.267 4.267-101.547 10.24 3.413 21.333 5.973 32.427 7.68 13.653 2.56 28.16 3.413 41.813 2.56z" />
<glyph unicode="&#xe917;" d="M634.027 875.52c-15.36 7.68 16.213 28.16 39.253 37.547 28.16 11.093 58.027 17.067 87.893 17.067 157.013-3.413 282.453-198.827 182.613-349.013 0 0-10.24-15.36-19.627 14.507-5.12 15.36-13.653 36.693-13.653 36.693-1.707 5.973 2.56 11.093 4.267 16.213 35.84 98.133-41.813 223.573-153.6 225.28-24.747-1.707-48.64-6.827-71.68-15.36-20.48-5.973-55.467 17.067-55.467 17.067zM97.28 581.973l17.92 56.32c-17.067 38.4-19.627 81.92-5.973 122.027 32.427 87.040 128 132.267 215.893 102.4 5.973-2.56 11.093-5.973 16.213-4.267 0 0 21.333 8.533 36.693 13.653 29.867 9.387 14.507 19.627 14.507 19.627-35.84 23.893-77.653 37.547-121.173 38.4-89.6 1.707-171.52-50.347-208.213-132.267-49.493-109.227 15.36-253.44 34.133-215.893zM936.96 344.747c-5.973 0.853-6.827 0-9.387-5.12l-17.92-56.32c17.067-38.4 19.627-81.92 5.973-122.027-32.427-87.040-128-132.267-215.893-102.4-5.973 2.56-11.093 5.973-16.213 4.267 0 0-21.333-8.533-36.693-13.653-29.867-9.387-14.507-19.627-14.507-19.627 47.787-31.573 105.813-44.373 162.133-34.987 141.653 23.893 224.427 193.707 165.547 317.44-5.973 12.8-11.947 29.867-23.040 32.427zM391.68 45.227l-54.613 17.92c-34.987-14.507-73.387-17.92-110.933-10.24-1.707 0-2.56 0.853-4.267 1.707-91.307 29.867-140.8 128-110.933 218.453 2.56 5.973 5.973 11.093 4.267 16.213 0 0-6.827 52.053-25.6 55.467-6.827 0-8.533-4.267-8.533-4.267-1.707-3.413-4.267-7.68-5.973-11.093-61.44-111.787-21.333-251.733 90.453-313.173 112.64-58.88 262.827 10.24 226.133 29.013z" />
<glyph unicode="&#xe918;" d="M519.68 972.8c103.253-4.267 203.093-75.947 221.867-177.493 11.947-75.947 5.12-153.6-18.773-226.133-39.253-124.587-187.733-256-331.947-132.267-73.387 63.147-98.987 164.693-104.107 267.093-5.12 105.813 41.813 215.040 142.507 251.733 29.013 11.093 59.733 17.067 90.453 17.067zM514.56 916.48c-78.507-3.413-156.16-57.173-168.96-134.827-11.093-75.093-1.707-152.747 28.16-222.72 32.427-76.8 122.88-150.187 215.040-91.307 75.093 47.787 96.427 146.773 101.547 243.2 3.413 82.773-32.427 167.253-110.080 193.707-20.48 8.533-42.667 11.947-65.707 11.947z" />
<glyph unicode="&#xe919;" d="M513.707 368.64c191.147-4.267 383.147-110.933 465.92-292.693l15.36-34.133c-151.893-57.173-312.32-87.893-475.307-93.013h-7.68c-152.747 1.707-303.787 29.013-447.147 80.213l-34.987 12.8c29.013 73.387 74.24 139.093 130.56 192.853 97.28 86.187 222.72 133.973 353.28 133.973zM512 312.32c-162.133-3.413-329.387-90.453-405.333-238.933 128.853-43.52 263.68-66.56 399.36-69.12h5.973c136.533 1.707 272.213 24.747 401.92 67.413l3.413 1.707c-74.24 145.067-239.787 232.96-403.627 238.933 0 0-0.853 0-1.707 0z" />
<glyph unicode="&#xe91a;" d="M505.131-8.67c-8.533 0-17.067 0.853-25.6 1.707-67.413 5.973-130.56 34.987-177.493 83.627-29.867 32.427-52.907 70.827-66.56 112.64-14.507 46.933-19.627 96.427-15.36 145.92 2.56 27.307 9.387 54.613 21.333 79.36 15.36 37.547 34.987 73.387 58.027 107.52 14.507 21.333 29.013 43.52 42.667 63.147l0.853 0.853c18.773 27.307 37.547 55.467 55.467 84.48 26.453 40.107 49.493 81.92 69.12 125.44 16.213 36.693 29.867 75.093 40.96 113.493 1.707 5.973 2.56 11.093 3.413 16.213v0c0 1.707 0.853 3.413 0.853 4.267 1.707-5.973 3.413-12.8 5.973-19.627v-0.853c4.267-15.36 8.533-30.72 13.653-46.933 20.48-60.587 48.64-117.76 82.773-171.52 16.213-25.6 33.28-51.2 48.64-74.24l5.12-6.827 7.68-11.093c5.12-7.68 10.24-15.36 15.36-23.040v0c29.867-41.813 57.173-86.187 80.213-132.267 14.507-29.013 24.747-59.733 30.72-92.16 5.12-25.6 5.973-52.053 3.413-78.507-4.267-59.733-24.747-117.76-59.733-166.4-30.72-43.52-74.24-75.947-123.733-94.72-22.187-7.68-44.373-13.653-67.413-16.213-17.92-2.56-34.133-4.267-50.347-4.267zM511.957 803.703c0-0.853 0-1.707-0.853-2.56v-1.707c-0.853-3.413-0.853-6.827-1.707-10.24-7.68-33.28-19.627-64.853-34.133-95.573-17.067-33.28-34.133-64.853-52.907-95.573-14.507-23.893-30.72-46.933-46.080-69.973v0c-11.093-16.213-23.893-34.987-35.84-52.907-22.187-32.427-39.253-67.413-52.053-104.107-9.387-31.573-12.8-64-9.387-96.427 1.707-24.747 7.68-49.493 17.067-72.533 13.653-36.693 36.693-68.267 66.56-93.013 34.987-29.013 77.653-46.080 122.88-49.493 10.24-0.853 19.627-0.853 29.013-0.853 32.427-0.853 64.853 5.12 94.72 17.92 34.133 14.507 64 37.547 87.040 66.56 20.48 25.6 34.987 55.467 42.667 87.040 9.387 34.133 11.947 69.973 7.68 105.813-4.267 30.72-13.653 59.733-29.013 87.040-15.36 28.16-33.28 56.32-51.2 83.627v0l-3.413 5.12c-11.947 17.92-23.893 36.693-35.84 54.613v0c-13.653 20.48-29.867 44.373-44.373 67.413-26.453 41.813-46.080 87.040-59.733 133.973-2.56 7.68-4.267 16.213-6.827 23.893v0.853c-0.853 5.12-2.56 9.387-3.413 12.8l-0.853-1.707z" />
<glyph unicode="&#xe91b;" d="M721.877 334.37c-4.267 30.72-13.653 59.733-29.013 87.040-16.213 30.72-54.613 88.747-54.613 88.747s-53.76 81.067-80.213 122.027c-25.6 41.813-46.080 87.040-59.733 133.973-4.267 12.8-6.827 24.747-9.387 37.547h-1.707c-0.853-5.12-1.707-10.24-2.56-14.507-7.68-33.28-19.627-64.853-34.133-95.573-17.067-32.427-33.28-64.853-52.907-95.573-26.453-41.813-55.467-81.92-82.773-122.88-22.187-32.427-39.253-67.413-52.053-104.107-9.387-31.573-11.947-64-9.387-96.427 1.707-24.747 7.68-49.493 17.067-72.533 13.653-36.693 36.693-68.267 66.56-93.013 34.987-29.013 77.653-46.080 122.88-49.493 41.813-4.267 84.48 0.853 123.733 17.067 34.133 14.507 64 37.547 87.040 66.56 20.48 25.6 34.987 55.467 42.667 87.040 10.24 33.28 12.8 69.12 8.533 104.107zM427.477 174.797v246.613l216.747-122.88-216.747-123.733z" />
<glyph unicode="&#xe91c;" glyph-name="wave" horiz-adv-x="1032" d="M547.599 888.544v0c-72.432 52.619-163.129 84.176-261.197 84.176-96.034 0-185-30.262-257.882-81.77l1.403 0.941c-17.647-10.432-29.297-29.361-29.297-51.011 0-11.453 3.26-22.145 8.903-31.198l-0.145 0.25c11.374-15.248 29.364-25.015 49.634-25.015 12.179 0 23.534 3.526 33.101 9.612l-0.251-0.149c54.728 38.678 122.828 61.823 196.335 61.823s141.608-23.145 197.413-62.545l-1.078 0.722c72.425-52.605 163.111-84.153 261.164-84.153 96.020 0 184.974 30.253 257.85 81.747l-1.404-0.941c17.647 10.432 29.297 29.361 29.297 51.011 0 11.453-3.26 22.145-8.903 31.198l0.145-0.25c-11.37 15.316-29.399 25.133-49.721 25.133-12.17 0-23.517-3.521-33.080-9.599l0.251 0.149c-54.736-38.682-122.847-61.828-196.363-61.828-73.436 0-141.478 23.096-197.258 62.421l1.083-0.724zM547.599 507.817v0c-72.432 52.619-163.129 84.176-261.197 84.176-96.034 0-185-30.262-257.882-81.77l1.403 0.941c-17.647-10.432-29.297-29.361-29.297-51.011 0-11.453 3.26-22.145 8.903-31.198l-0.145 0.25c11.371-15.3 29.391-25.105 49.7-25.105 12.151 0 23.483 3.51 33.036 9.571l-0.252-0.149c54.728 38.678 122.828 61.823 196.335 61.823s141.608-23.145 197.413-62.545l-1.078 0.722c72.425-52.605 163.111-84.153 261.164-84.153 96.020 0 184.974 30.253 257.85 81.747l-1.404-0.941c17.647 10.432 29.297 29.361 29.297 51.011 0 11.453-3.26 22.145-8.903 31.198l0.145-0.25c-11.37 15.316-29.399 25.133-49.721 25.133-12.17 0-23.517-3.521-33.080-9.599l0.251 0.149c-54.717-38.641-122.793-61.763-196.269-61.763s-141.553 23.122-197.35 62.486l1.080-0.723zM547.599 127.155v0c-72.429 52.628-163.127 84.191-261.196 84.191-96.037 0-185.004-30.268-257.882-81.785l1.402 0.94c-17.647-10.432-29.297-29.361-29.297-51.011 0-11.453 3.26-22.145 8.903-31.198l-0.145 0.25c11.371-15.3 29.391-25.105 49.7-25.105 12.151 0 23.483 3.51 33.036 9.571l-0.252-0.149c54.728 38.678 122.828 61.823 196.335 61.823s141.608-23.145 197.413-62.545l-1.078 0.722c72.425-52.605 163.111-84.153 261.164-84.153 96.020 0 184.974 30.253 257.85 81.747l-1.404-0.941c17.647 10.432 29.297 29.361 29.297 51.011 0 11.453-3.26 22.145-8.903 31.198l0.145-0.25c-11.37 15.316-29.399 25.133-49.721 25.133-12.17 0-23.517-3.521-33.080-9.599l0.251 0.149c-54.717-38.641-122.793-61.763-196.269-61.763s-141.553 23.122-197.35 62.486l1.080-0.723z" />
<glyph unicode="&#xe91d;" glyph-name="delais" d="M128 800v128c0 19.2 12.8 32 32 32s32-12.8 32-32v-128c0-19.2-12.8-32-32-32s-32 12.8-32 32zM672 768c19.2 0 32 12.8 32 32v128c0 19.2-12.8 32-32 32s-32-12.8-32-32v-128c0-19.2 12.8-32 32-32zM1024 192c0-140.8-115.2-256-256-256s-256 115.2-256 256c0 140.8 115.2 256 256 256s256-115.2 256-256zM960 192c0 105.6-86.4 192-192 192s-192-86.4-192-192c0-105.6 86.4-192 192-192s192 86.4 192 192zM256 576h-128v-128h128v128zM128 256h128v128h-128v-128zM320 448h128v128h-128v-128zM320 256h128v128h-128v-128zM64 198.4v441.6h704v-128h64v249.6c0 38.4-32 70.4-70.4 70.4h-25.6v-32c0-35.2-28.8-64-64-64s-64 28.8-64 64v32h-384v-32c0-35.2-28.8-64-64-64s-64 28.8-64 64v32h-25.6c-38.4 0-70.4-32-70.4-70.4v-563.2c0-38.4 32-70.4 70.4-70.4h377.6v64h-377.6c-3.2 0-6.4 3.2-6.4 6.4zM640 448v128h-128v-128h128zM864 192h-96v96c0 19.2-12.8 32-32 32s-32-12.8-32-32v-128c0-19.2 12.8-32 32-32h128c19.2 0 32 12.8 32 32s-12.8 32-32 32z" />
<glyph unicode="&#xe91e;" glyph-name="garantie" d="M934.4 800c-176 0-310.4 51.2-422.4 160-112-108.8-246.4-160-422.4-160 0-288-57.6-697.6 422.4-864 480 166.4 422.4 576 422.4 864zM476.8 294.4l-140.8 140.8 64 64 76.8-76.8 147.2 147.2 64-64-211.2-211.2z" />
<glyph unicode="&#xe91f;" glyph-name="installation" d="M28.8 99.2c-38.4-38.4-38.4-99.2 0-134.4 19.2-19.2 41.6-28.8 67.2-28.8s48 9.6 67.2 28.8l313.6 313.6-134.4 137.6-313.6-316.8zM816 684.8l137.6 70.4 70.4 137.6-67.2 67.2-137.6-70.4-70.4-137.6-169.6-166.4 70.4-70.4zM844.8 320h-12.8c-22.4 0-44.8-3.2-67.2-12.8l-393.6 393.6c9.6 22.4 12.8 44.8 12.8 67.2v12.8c-6.4 99.2-89.6 179.2-192 179.2-28.8 0-57.6-6.4-80-19.2l128-128c6.4-6.4 9.6-12.8 12.8-22.4 9.6-22.4 3.2-48-16-67.2-9.6-12.8-28.8-19.2-44.8-19.2-6.4 0-12.8 3.2-22.4 3.2-6.4 3.2-16 9.6-22.4 16l-128 128c-9.6-25.6-19.2-54.4-19.2-83.2 0-102.4 80-182.4 179.2-192h12.8c22.4 0 44.8 3.2 67.2 12.8l393.6-393.6c-6.4-19.2-12.8-41.6-12.8-67.2v-12.8c6.4-99.2 89.6-179.2 192-179.2 28.8 0 57.6 6.4 83.2 19.2l-128 128c-6.4 6.4-12.8 16-16 22.4-9.6 22.4-3.2 48 16 67.2 12.8 12.8 28.8 19.2 44.8 19.2 6.4 0 16 0 22.4-3.2 9.6-3.2 16-6.4 22.4-12.8l128-128c12.8 25.6 19.2 51.2 19.2 83.2 0 99.2-80 182.4-179.2 188.8z" />
<glyph unicode="&#xe920;" glyph-name="livraison" d="M35.2 329.6v435.2c0 25.6 19.2 44.8 44.8 44.8h435.2c25.6 0 44.8-19.2 44.8-44.8v-435.2c0-9.6-6.4-16-16-16h-492.8c-9.6 0-16 6.4-16 16zM387.2 179.2c0-51.2-41.6-89.6-89.6-89.6s-92.8 38.4-92.8 89.6c0 51.2 41.6 89.6 89.6 89.6s92.8-38.4 92.8-89.6zM342.4 179.2c0 25.6-19.2 44.8-44.8 44.8s-44.8-19.2-44.8-44.8c0-25.6 19.2-44.8 44.8-44.8s44.8 19.2 44.8 44.8zM217.6 268.8h-201.6c-9.6 0-16-6.4-16-12.8v-44.8c0-9.6 6.4-16 16-16h163.2c3.2 32 19.2 57.6 38.4 73.6zM864 179.2c0-51.2-41.6-89.6-89.6-89.6-51.2 0-89.6 41.6-89.6 89.6 0 51.2 41.6 89.6 89.6 89.6s89.6-38.4 89.6-89.6zM819.2 179.2c0 25.6-19.2 44.8-44.8 44.8s-44.8-19.2-44.8-44.8c0-25.6 19.2-44.8 44.8-44.8 22.4 0 44.8 19.2 44.8 44.8zM1024 256v-44.8c0-9.6-6.4-16-16-16h-118.4c-9.6 57.6-57.6 102.4-118.4 102.4s-108.8-44.8-118.4-102.4h-236.8c-3.2 28.8-19.2 54.4-41.6 73.6h227.2v419.2c0 16 12.8 28.8 28.8 28.8h137.6c38.4 0 73.6-19.2 96-51.2l89.6-131.2c12.8-19.2 19.2-41.6 19.2-64v-198.4h35.2c9.6-3.2 16-9.6 16-16zM876.8 531.2l-70.4 102.4c-3.2 3.2-6.4 6.4-12.8 6.4h-112c-9.6 0-16-6.4-16-16v-102.4c0-9.6 6.4-16 16-16h182.4c12.8 3.2 19.2 16 12.8 25.6z" />
<glyph unicode="&#xe921;" glyph-name="paiement" d="M937.6 857.6c22.4 0 44.8-9.6 60.8-25.6s25.6-35.2 25.6-60.8v-649.6c0-22.4-9.6-44.8-25.6-60.8s-35.2-25.6-60.8-25.6h-851.2c-22.4 0-44.8 9.6-60.8 25.6-16 19.2-25.6 38.4-25.6 64v646.4c0 25.6 9.6 44.8 25.6 60.8s35.2 25.6 60.8 25.6h851.2zM86.4 790.4c-3.2 0-9.6-3.2-12.8-6.4s-6.4-6.4-6.4-12.8v-118.4h886.4v118.4c0 3.2-3.2 9.6-6.4 12.8s-6.4 6.4-12.8 6.4h-848zM937.6 105.6c3.2 0 9.6 3.2 12.8 6.4s6.4 6.4 6.4 12.8v323.2h-889.6v-323.2c0-3.2 3.2-9.6 6.4-12.8s6.4-6.4 12.8-6.4h851.2zM137.6 176v67.2h137.6v-67.2h-137.6zM342.4 176v67.2h204.8v-67.2h-204.8z" />
<glyph unicode="&#xe922;" glyph-name="remise" d="M976 841.6h-758.4c-19.2 0-38.4-9.6-44.8-25.6l-163.2-323.2c-12.8-28.8-12.8-60.8 0-89.6l160-323.2c9.6-16 25.6-28.8 44.8-28.8h758.4c28.8 0 48 22.4 48 48v694.4c3.2 25.6-19.2 48-44.8 48zM406.4 668.8c54.4 0 99.2-44.8 99.2-99.2s-44.8-99.2-99.2-99.2-99.2 44.8-99.2 99.2 44.8 99.2 99.2 99.2zM704 176c-54.4 0-99.2 44.8-99.2 99.2s44.8 99.2 99.2 99.2c54.4 0 99.2-44.8 99.2-99.2s-44.8-99.2-99.2-99.2zM377.6 176l-70.4 70.4 425.6 422.4 70.4-70.4c0 3.2-425.6-422.4-425.6-422.4z" />
<glyph unicode="&#xe923;" glyph-name="sur-mesure" d="M496 441.6h131.2v92.8c-28.8-38.4-70.4-70.4-128-89.6 0 0-3.2 0-3.2-3.2zM313.6 80h57.6v67.2c0 16 12.8 28.8 28.8 28.8s28.8-12.8 28.8-28.8v-67.2h60.8v137.6c0 16 12.8 28.8 28.8 28.8s28.8-12.8 28.8-28.8v-137.6h64v67.2c0 16 12.8 28.8 28.8 28.8s28.8-12.8 28.8-28.8v-67.2h64v137.6c0 16 12.8 28.8 28.8 28.8s28.8-12.8 28.8-28.8v-137.6h64v67.2c0 16 12.8 28.8 28.8 28.8s28.8-12.8 28.8-28.8v-67.2h57.6c22.4 0 44.8 19.2 44.8 44.8v240c0 22.4-19.2 44.8-44.8 44.8h-678.4c-80 3.2-156.8 22.4-214.4 57.6-32 19.2-57.6 41.6-76.8 67.2 0 0 0 0 0 0v-265.6c0-105.6 140.8-188.8 313.6-188.8zM300.8 441.6c3.2 0 9.6 0 12.8 0v0 0c128 0 240 44.8 288 112 16 22.4 25.6 48 25.6 73.6 0 102.4-140.8 185.6-313.6 185.6-172.8 3.2-313.6-80-313.6-182.4 0-25.6 9.6-51.2 25.6-73.6 44.8-64 150.4-112 275.2-115.2zM313.6 710.4c76.8 0 140.8-38.4 140.8-83.2 0-6.4-3.2-16-3.2-22.4-3.2-3.2-3.2-6.4-6.4-9.6-22.4-28.8-70.4-51.2-128-51.2-3.2 0-9.6 0-12.8 0-51.2 3.2-96 22.4-115.2 51.2-6.4 9.6-12.8 22.4-12.8 32-3.2 48 60.8 83.2 137.6 83.2z" />
<glyph unicode="&#xe924;" glyph-name="facebook1" horiz-adv-x="936" d="M636.728 858.055h-111.789c0 0-127.489 8.824-160.178-119.654 0 0-8.168-17.648-6.533-100.688h-99.698v-125.213h98.723v-374.32h165.7v373.984h114.080v125.541h-115.069v30.411c0 0-2.63 65.71 56.228 65.71h58.522v124.223z" />
<glyph unicode="&#xe925;" glyph-name="YouTube1" horiz-adv-x="1460" d="M723.304 799.68c-145.103 0-281.36-10.99-353.913-26.36-48.34-10.99-90.153-43.96-98.91-94.53-8.757-52.717-17.6-131.88-17.6-230.79s8.757-175.84 19.747-230.79c8.843-48.34 50.57-83.54 98.91-94.53 77.016-15.37 208.81-26.36 353.913-26.36s276.897 10.99 353.827 26.36c48.426 10.99 90.153 43.96 98.91 94.53 8.843 54.95 19.833 134.027 21.98 232.937 0 98.91-10.99 178.073-21.98 233.023-8.757 48.34-50.484 83.54-98.91 94.53-76.93 10.99-210.957 21.98-355.974 21.98zM723.304 755.72c158.24 0 285.654-13.137 347.214-24.127 32.97-8.843 59.33-30.823 63.707-59.416 13.223-70.32 21.98-145.103 21.98-222.033-2.147-94.444-13.137-171.374-21.98-226.324-6.524-41.727-50.484-54.95-63.707-59.416-79.163-15.37-211.043-26.274-342.923-26.274s-265.907 8.757-342.837 26.274c-32.97 8.843-59.33 30.823-63.707 59.416-17.6 61.56-24.213 142.87-24.213 224.18 0 101.143 8.843 175.84 17.6 221.947 6.61 41.813 52.717 55.036 63.707 59.416 72.55 15.37 206.663 26.36 345.156 26.36zM604.558 623.84v-351.68l307.72 175.84zM648.518 549.057l175.84-101.057-175.84-101.057z" />
<glyph unicode="&#xe926;" glyph-name="YOU-TUBE-2" d="M512 720c-272.992 0-309.446-2.844-344.438-38.844s-39.562-93.188-39.562-233.156c0-139.968 4.57-197.172 39.562-233.156s71.446-38.844 344.438-38.844c272.992 0 309.446 2.86 344.438 38.844 34.992 36 39.562 93.188 39.562 233.156s-4.57 197.156-39.562 233.156c-34.992 36-71.446 38.844-344.438 38.844zM512 656c223.504 0 278.066-0.999 296.562-19.719s23.438-68.889 23.438-188.281c0-119.392-4.942-169.561-23.438-188.281s-73.058-19.719-296.562-19.719c-223.504 0-278.066 0.999-296.562 19.719s-22.938 68.889-22.938 188.281c0 119.392 4.442 169.561 22.938 188.281s73.058 19.719 296.562 19.719zM447.188 559.719v-223.438l194.344 112.594-194.344 110.844z" />
</font>
</defs>
</svg>
